zene mindenkinek

üdvözöllek MusicMan oldalán!!

Az oldal teljes tartalmának megtekintéséhez regisztrációra van szükség.

Az oldalon minden teljesen ingyenes
zene mindenkinek

zene mindenkinek


    Death Race 2050.2017.DVDRip.XviD.HUNSUB

    Share
    avatar
    Admin
    Admin
    Admin

    Hozzászólások száma : 411
    Join date : 2013. Aug. 18.

    Death Race 2050.2017.DVDRip.XviD.HUNSUB

    Témanyitás by Admin on Szomb. Jan. 14, 2017 10:01 am

    [You must be registered and logged in to see this image.]

    [You must be registered and logged in to see this image.]

    Death Race 2050
    (Death Race 2050)

    magyar feliratos-amerikai,akció,vígjáték,sci-fi 93 perc (2017)

    [You must be registered and logged in to see this image.]

    RENDEZŐ: G.J. Echternkamp
    FORGATÓKÖNYVÍRÓ: G.J. Echternkamp
    PRODUCER: Roger Corman


    [You must be registered and logged in to see this image.]

    Manu Bennett,
    Malcolm McDowell,
    Marci Miller,
    Burt Grinstead,
    Folake Olowofoyeku,
    Anessa Ramsey,
    Yancy Butler,
    Charlie Farrell,
    Shanna Olson

    [You must be registered and logged in to see this image.]


    Video
    ID : 0
    Format : MPEG-4 Visual
    Format profile : Simple@L3
    Format settings, BVOP : No
    Format settings, QPel : No
    Format settings, GMC : No warppoints
    Format settings, Matrix : Default (H.263)
    Codec ID : XVID
    Codec ID/Hint : XviD
    Duration : 1h 32mn
    Source duration : 1h 32mn
    Bit rate : 1 692 Kbps
    Width : 720 pixels
    Height : 400 pixels
    Display aspect ratio : 16:9
    Frame rate : 23.976 (24000/1001) fps
    Color space : YUV
    Chroma subsampling : 4:2:0
    Bit depth : 8 bits
    Scan type : Progressive
    Compression mode : Lossy
    Bits/(Pixel*Frame) : 0.245
    Stream size : 1.10 GiB (79%)
    Writing library : XviD 1.1.2 (UTC 2006-11-01)

    Audio
    ID : 1
    Format : AC-3
    Format/Info : Audio Coding 3
    Mode extension : CM (complete main)
    Format settings, Endianness : Big
    Codec ID : 2000
    Duration : 1h 32mn
    Bit rate mode : Constant
    Bit rate : 448 Kbps
    Channel(s) : 6 channels
    Channel positions : Front: L C R, Side: L R, LFE
    Sampling rate : 48.0 KHz
    Frame rate : 31.250 fps (1536 spf)
    Compression mode : Lossy
    Stream size : 297 MiB (21%)
    Alignment : Aligned on interleaves
    Interleave, duration : 32 ms (0.77 video frame)


    [You must be registered and logged in to see this image.]

    A film története szerint 2050-re a bolygó túlnépesedik, ezért bevezetnek egy versenyt, ami segíthet kordában tartani a túlnépesedést. Ebben az őrült versenyben a résztvevők úgy tudnak pontokat szerezni, ha halálra gázolják az embereket.

    [You must be registered and logged in to see this image.]

    [You must be registered and logged in to see this image.]

    [You must be registered and logged in to see this image.]

    [You must be registered and logged in to see this image.]

    [You must be registered and logged in to see this image.]

    Kód:
    http://data.hu/get/10248854/Death_Race_2050.2017.DVDRip.XviD.HUNSUB.z01?pid=3213894265
    http://data.hu/get/10248855/Death_Race_2050.2017.DVDRip.XviD.HUNSUB.z02?pid=3213894265
    http://data.hu/get/10248856/Death_Race_2050.2017.DVDRip.XviD.HUNSUB.z03?pid=3213894265
    http://data.hu/get/10248857/Death_Race_2050.2017.DVDRip.XviD.HUNSUB.z04?pid=3213894265
    http://data.hu/get/10248858/Death_Race_2050.2017.DVDRip.XviD.HUNSUB.z05?pid=3213894265
    http://data.hu/get/10248859/Death_Race_2050.2017.DVDRip.XviD.HUNSUB.z06?pid=3213894265
    http://data.hu/get/10248860/Death_Race_2050.2017.DVDRip.XviD.HUNSUB.z07?pid=3213894265
    http://data.hu/get/10248861/Death_Race_2050.2017.DVDRip.XviD.HUNSUB.z08?pid=3213894265
    http://data.hu/get/10248862/Death_Race_2050.2017.DVDRip.XviD.HUNSUB.z09?pid=3213894265
    http://data.hu/get/10248863/Death_Race_2050.2017.DVDRip.XviD.HUNSUB.z10?pid=3213894265
    http://data.hu/get/10248864/Death_Race_2050.2017.DVDRip.XviD.HUNSUB.z11?pid=3213894265
    http://data.hu/get/10248865/Death_Race_2050.2017.DVDRip.XviD.HUNSUB.z12?pid=3213894265
    http://data.hu/get/10248866/Death_Race_2050.2017.DVDRip.XviD.HUNSUB.z13?pid=3213894265
    http://data.hu/get/10248867/Death_Race_2050.2017.DVDRip.XviD.HUNSUB.z14?pid=3213894265
    http://data.hu/get/10248868/Death_Race_2050.2017.DVDRip.XviD.HUNSUB.zip?pid=3213894265

    lolo111

    Hozzászólások száma : 26
    Join date : 2014. Jul. 15.

    Re: Death Race 2050.2017.DVDRip.XviD.HUNSUB

    Témanyitás by lolo111 on Vas. Jan. 29, 2017 12:13 pm

    THX..

      Pontos idő: Vas. Dec. 16, 2018 10:56 pm