zene mindenkinek

üdvözöllek MusicMan oldalán!!

Az oldal teljes tartalmának megtekintéséhez regisztrációra van szükség.

Az oldalon minden teljesen ingyenes
zene mindenkinek

zene mindenkinek


    12 katona 2018.CAM.HUN

    Share
    avatar
    Admin
    Admin
    Admin

    Hozzászólások száma : 398
    Join date : 2013. Aug. 18.

    12 katona 2018.CAM.HUN

    Témanyitás by Admin on Hétf. Márc. 12, 2018 8:24 pm

    [You must be registered and logged in to see this image.]

    [You must be registered and logged in to see this image.]
    12 katona
    Eredeti cím:
    12 Strong
    Év:
    2018
    Játékidő:
    130 perc
    Kategória:
    Akció, Dráma, Történelmi
    [You must be registered and logged in to see this image.]

    Író:
    Peter Craig, Ted Tally
    Rendező:
    Nicolai Fuglsig
    [You must be registered and logged in to see this image.]

    William Fichtner (Colonel Mulholland), Thad Luckinbill (Vern Michaels), Michael Peña (Sam Diller), Michael Shannon (Hal Spencer), Geoff Stults (Sean Coffers), Navid Negahban (General Dostum), Chris Hemsworth (Captain Mitch Nelson), Rob Riggle (Lt. Colonel Bowers), Kenneth Miller (Kevin Jackson), Austin Stowell (Fred Falls), Austin Hébert (Pat Essex), Kenny Sheard (Bill Bennett), Jack Kesy (Charles Jones), Ben O'Toole (Scott Black), Trevante Rhodes (Ben Milo)
    [You must be registered and logged in to see this image.]
    Format : MPEG-4
    Format profile : Base Media
    Codec ID : isom (isom/iso2/avc1/mp41)
    File size : 879 MiB
    Duration : 1 h 59 min
    Overall bit rate : 1 029 kb/s
    Writing application : Lavf57.83.100

    Video
    ID : 1
    Format : AVC
    Format/Info : Advanced Video Codec
    Format profile : High@L3.1
    Format settings, CABAC : Yes
    Format settings, ReFrames : 5 frames
    Codec ID : avc1
    Codec ID/Info : Advanced Video Coding
    Duration : 1 h 59 min
    Bit rate : 896 kb/s
    Width : 960 pixels
    Height : 540 pixels
    Display aspect ratio : 16:9
    Frame rate mode : Constant
    Frame rate : 29.970 (30000/1001) FPS
    Color space : YUV
    Chroma subsampling : 4:2:0
    Bit depth : 8 bits
    Scan type : Progressive
    Bits/(Pixel*Frame) : 0.058
    Stream size : 764 MiB (87%)
    Writing library : x264 core 148 r2643 5c65704

    Audio
    ID : 2
    Format : AAC
    Format/Info : Advanced Audio Codec
    Format profile : LC
    Codec ID : 40
    Duration : 1 h 59 min
    Duration_LastFrame : -3 ms
    Bit rate mode : Constant
    Bit rate : 128 kb/s
    Channel(s) : 2 channels
    Channel positions : Front: L R
    Sampling rate : 48.0 kHz
    Frame rate : 46.875 FPS (1024 spf)
    Compression mode : Lossy
    Stream size : 109 MiB (12%)
    Title : 12.Katona.2018.CAM.HUN
    Default : Yes
    Alternate group : 1
    [You must be registered and logged in to see this image.]
    2001. szeptember 11-én sosem látott méretű támadás érte az Egyesült Államokat. Egy nap sem kellett hozzá, hogy döntés szülessen az első válaszcsapásról. Egy fiatal, vakmerő, de igazi háborút még sosem látott tiszt (Chris Hemsworth) vezetésével egy elit kommandós egységet dobtak le az afgán hegyek közé. A feladatuk az, hogy eljussanak Mazár-e Sarifba, elfoglalják a várost és elvágják az al-Kaida utánpótlási vonalát. A helyszínen a kommandósok átmeneti szövetséget kötnek egy helyi hadúrral, aki támogatja őket: lovakat ad nekik a harchoz. A legmodernebb haditechnikára kiképzett 12 katona attól kezdve lóháton csatázik. Hatalmas túlerő ellen, elképesztő körülmények között küzdenek, de vigyáznak egymásra és a lovaikra: a háború új szabályait tanulják.
    [You must be registered and logged in to see this image.]


    [You must be registered and logged in to see this image.]

    [You must be registered and logged in to see this image.]

    [You must be registered and logged in to see this image.]

    [You must be registered and logged in to see this image.]


    [You must be registered and logged in to see this image.]

    Kód:
    https://data.hu/get/11106914/12_katona_2018.CAM.HUN.z01?pid=3213894265
    https://data.hu/get/11106915/12_katona_2018.CAM.HUN.z02?pid=3213894265
    https://data.hu/get/11106916/12_katona_2018.CAM.HUN.z03?pid=3213894265
    https://data.hu/get/11106917/12_katona_2018.CAM.HUN.z04?pid=3213894265
    https://data.hu/get/11106918/12_katona_2018.CAM.HUN.z05?pid=3213894265
    https://data.hu/get/11106919/12_katona_2018.CAM.HUN.z06?pid=3213894265
    https://data.hu/get/11106920/12_katona_2018.CAM.HUN.z07?pid=3213894265
    https://data.hu/get/11106921/12_katona_2018.CAM.HUN.z08?pid=3213894265
    https://data.hu/get/11106922/12_katona_2018.CAM.HUN.z09?pid=3213894265
    https://data.hu/get/11106923/12_katona_2018.CAM.HUN.zip?pid=3213894265






      Pontos idő: Szer. Okt. 24, 2018 3:02 am