zene mindenkinek

üdvözöllek MusicMan oldalán!!

Az oldal teljes tartalmának megtekintéséhez regisztrációra van szükség.

Az oldalon minden teljesen ingyenes
zene mindenkinek

zene mindenkinek


    Bosszúvágy 2018 CAM.HUN

    Share
    avatar
    Admin
    Admin
    Admin

    Hozzászólások száma : 411
    Join date : 2013. Aug. 18.

    Bosszúvágy 2018 CAM.HUN

    Témanyitás by Admin on Szer. Márc. 14, 2018 6:06 pm

    [You must be registered and logged in to see this image.]

    [You must be registered and logged in to see this image.]
    Bosszúvágy
    /Death Wish/
    magyarul beszélő, amerikai akcióthriller, 108 perc, 2018
    [You must be registered and logged in to see this image.]

    rendező:
    Eli Roth
    forgatókönyvíró:
    Joe Carnahan
    operatőr:
    Rogier Stoffers
    zene:
    Ludwig Goransson
    producer:
    Roger Birnbaum
    vágó:
    Mark Goldblatt
    [You must be registered and logged in to see this image.]
    Paul Kersey
    Bruce Willis
    Frank Kersey
    Vincent D'Onofrio
    Lucy Kersey
    Elisabeth Shue
    Jordan Kersey
    Camila Morrone
    Rains nyomozó
    Dean Norris
    The Fish
    Jack Kesy
    Knox
    Beau Knapp
    Bethany
    Kirby Bliss Blanton
    Jackson nyomozó
    Kimberly Elise
    [You must be registered and logged in to see this image.]
    Format : MPEG-4
    Format profile : Base Media
    Codec ID : isom (isom/iso2/avc1/mp41)
    File size : 734 MiB
    Duration : 1 h 39 min
    Overall bit rate : 1 030 kb/s
    Writing application : Lavf57.83.100

    Video
    ID : 1
    Format : AVC
    Format/Info : Advanced Video Codec
    Format profile : High@L3.1
    Format settings, CABAC : Yes
    Format settings, ReFrames : 5 frames
    Codec ID : avc1
    Codec ID/Info : Advanced Video Coding
    Duration : 1 h 39 min
    Bit rate : 896 kb/s
    Width : 960 pixels
    Height : 540 pixels
    Display aspect ratio : 16:9
    Frame rate mode : Constant
    Frame rate : 25.000 FPS
    Color space : YUV
    Chroma subsampling : 4:2:0
    Bit depth : 8 bits
    Scan type : Progressive
    Bits/(Pixel*Frame) : 0.069
    Stream size : 639 MiB (87%)
    Writing library : x264 core 148 r2643 5c65704

    Audio
    ID : 2
    Format : AAC
    Format/Info : Advanced Audio Codec
    Format profile : LC
    Codec ID : 40
    Duration : 1 h 39 min
    Duration_LastFrame : -9 ms
    Bit rate mode : Constant
    Bit rate : 128 kb/s
    Channel(s) : 2 channels
    Channel positions : Front: L R
    Sampling rate : 44.1 kHz
    Frame rate : 43.066 FPS (1024 spf)
    Compression mode : Lossy
    Stream size : 91.2 MiB (12%)
    Default : Yes
    Alternate group : 1
    [You must be registered and logged in to see this image.]
    A chicagói sebészorvos, Dr. Paul Kersey (Bruce Willis) csak közvetetten ismeri az utcai erőszakot, amit a műtőjébe került számtalan áldozat szenved el. Ám mindez megváltozik, mikor feleségét (Elisabeth Shue) és lányát (Camila Morrone) brutális támadás éri külvárosi otthonukban. Megelégelve a túlterhelt rendőrség tétlenségét, a bosszúvágytól fűtött Paul maga ered az elkövetők nyomába, hogy igazságot szolgáltasson. A megszaporodó önítélkezésekre a média is felfigyel, a lakosság pedig azt találgatja, hogy őrangyal vagy hóhér járja-e a város utcáit.
    [You must be registered and logged in to see this image.]

    [You must be registered and logged in to see this image.]


    [You must be registered and logged in to see this image.]


    [You must be registered and logged in to see this image.]


    [You must be registered and logged in to see this image.]


    Kód:
    https://data.hu/get/11111382/Bosszuvagy_2018_CAM.HUN.z01?pid=3213894265
    https://data.hu/get/11111383/Bosszuvagy_2018_CAM.HUN.z02?pid=3213894265
    https://data.hu/get/11111384/Bosszuvagy_2018_CAM.HUN.z03?pid=3213894265
    https://data.hu/get/11111385/Bosszuvagy_2018_CAM.HUN.z04?pid=3213894265
    https://data.hu/get/11111386/Bosszuvagy_2018_CAM.HUN.z05?pid=3213894265
    https://data.hu/get/11111388/Bosszuvagy_2018_CAM.HUN.z06?pid=3213894265
    https://data.hu/get/11111389/Bosszuvagy_2018_CAM.HUN.z07?pid=3213894265
    https://data.hu/get/11111390/Bosszuvagy_2018_CAM.HUN.zip?pid=3213894265



      Pontos idő: Vas. Dec. 16, 2018 10:04 pm