zene mindenkinek

üdvözöllek MusicMan oldalán!!

Az oldal teljes tartalmának megtekintéséhez regisztrációra van szükség.

Az oldalon minden teljesen ingyenes
zene mindenkinek

zene mindenkinek


    A vonatrablás 2016 BDRip.HUN

    Share
    avatar
    Admin
    Admin
    Admin

    Hozzászólások száma : 394
    Join date : 2013. Aug. 18.

    A vonatrablás 2016 BDRip.HUN

    Témanyitás by Admin on Hétf. Márc. 19, 2018 3:59 pm

    [You must be registered and logged in to see this image.]

    [You must be registered and logged in to see this image.]
    A vonatrablás
    /Railroad Tigers/
    kínai akció-vígjáték, 2016
    [You must be registered and logged in to see this image.]

    Rendező:
    Ding Sheng
    Író:
    Alex Jia, He Keke
    [You must be registered and logged in to see this image.]
    Jackie Chan (Ma Yuan), Hiroyuki Ikeuchi (), Hiroyuki Ikeuchi (Yamaguchi), Fan Xu (), Fan Xu (Auntie Qin), Jaycee Chan (Rui Ge), Wei Na (), Wei Na (Huang Yifeng), Alan Ng (Xiao Qi), Kai Wang (Fan Chuan), Kôji Yano (), Kôji Yano (Sasaki (as Koji Yano)), Wing Lun Ng (Xiaohu), Lanxin Zhang (), Lanxin Zhang ((as Lanxin Zhang)), Lanxin Zhang (Yuko (as Lanxin Zhang)), Yunwei He (), Yunwei He (Feng Banxian), Ping Sang (Da Qui (as Sang Ping)), Ping Sang (Dakui (as Sang Ping)), Darren Wang (Da Guo), Darren Wang (Daguo (as Wang Ta Lu)), Zitao Huang (Da Hai), Zitao Huang (Dahai), Asano Nagahide (), Asano Nagahide (Sakamoto), Yishang Zhang (), Yishang Zhang (Xing'er)
    [You must be registered and logged in to see this image.]

    Video
    ID : 1
    Format : AVC
    Format/Info : Advanced Video Codec
    Format profile : High@L3.1
    Format settings, CABAC : Yes
    Format settings, ReFrames : 5 frames
    Codec ID : avc1
    Codec ID/Info : Advanced Video Coding
    Duration : 2 h 4 min
    Bit rate : 512 kb/s
    Width : 720 pixels
    Height : 302 pixels
    Display aspect ratio : 2.40:1
    Frame rate mode : Constant
    Frame rate : 24.000 FPS
    Color space : YUV
    Chroma subsampling : 4:2:0
    Bit depth : 8 bits
    Scan type : Progressive
    Bits/(Pixel*Frame) : 0.098
    Stream size : 452 MiB (88%)
    Writing library : x264 core 148 r2643 5c65704

    Language : hun
    Menus : 3

    Audio
    ID : 2
    Format : AAC
    Format/Info : Advanced Audio Codec
    Format profile : LC
    Codec ID : 40
    Duration : 2 h 4 min
    Duration_LastFrame : -11 ms
    Bit rate mode : Constant
    Bit rate : 64.8 kb/s
    Channel(s) : 2 channels
    Channel positions : Front: L R
    Sampling rate : 48.0 kHz
    Frame rate : 46.875 FPS (1024 spf)
    Compression mode : Lossy
    Stream size : 57.5 MiB (11%)
    Language : Hungarian
    Default : Yes
    Alternate group : 1
    Menus : 3

    Menu #1
    ID : 3
    Codec ID : text
    Duration : 2 h 4 min
    Language : hun
    Bit rate mode : CBR
    Menu For : 1,2
    [You must be registered and logged in to see this image.]
    1941, Kína. Egy, a vasútnál dolgozó férfi a japánok ellen fellépő szabadságharcosok élére áll azért, hogy ételhez jussanak a nagy nyomorban.....

    [You must be registered and logged in to see this image.]


    Kód:
    https://data.hu/get/11122778/A_vonatrablas_2016_BDRip.HUN.z01?pid=3213894265
    https://data.hu/get/11122779/A_vonatrablas_2016_BDRip.HUN.z02?pid=3213894265
    https://data.hu/get/11122780/A_vonatrablas_2016_BDRip.HUN.z03?pid=3213894265
    https://data.hu/get/11122781/A_vonatrablas_2016_BDRip.HUN.z04?pid=3213894265
    https://data.hu/get/11122782/A_vonatrablas_2016_BDRip.HUN.z05?pid=3213894265
    https://data.hu/get/11122783/A_vonatrablas_2016_BDRip.HUN.zip?pid=3213894265


      Pontos idő: Szer. Szept. 26, 2018 2:48 pm