zene mindenkinek

üdvözöllek MusicMan oldalán!!

Az oldal teljes tartalmának megtekintéséhez regisztrációra van szükség.

Az oldalon minden teljesen ingyenes
zene mindenkinek

zene mindenkinek


    Sherlock Gnomes 2018.HDCAM.HUN

    Share
    avatar
    Admin
    Admin
    Admin

    Hozzászólások száma : 409
    Join date : 2013. Aug. 18.

    Sherlock Gnomes 2018.HDCAM.HUN

    Témanyitás by Admin on Hétf. Márc. 26, 2018 6:39 am

    [You must be registered and logged in to see this image.]

    [You must be registered and logged in to see this image.]
    Sherlock Gnomes /Gnomeo & Juliet: Sherlock Gnomes/
    magyarul beszélő, amerikai-angol családi animációs film, 86 perc, 2018
    [You must be registered and logged in to see this image.]
    John Stevenson
    forgatókönyvíró:
    Kevin Cecil Andy Riley Ben Zazove
    zene:
    Chris Bacon Sir Elton John
    producer:
    David Furnish Sir Elton John Steve Hamilton Shaw
    vágó:
    Prakash Patel Mark Solomon
    [You must be registered and logged in to see this image.]
    Sherlock Gnomes hangja
    Johnny Depp
    Júlia hangja
    Emily Blunt
    Gnómeó hangja
    James McAvoy
    Watson hangja
    Chiwetel Ejiofor
    Mary J. Blige Michael Caine Maggie Smith
    [You must be registered and logged in to see this image.]

    Format : MPEG-4
    Format profile : Base Media
    Codec ID : isom (isom/iso2/avc1/mp41)
    File size : 640 MiB
    Duration : 1 h 17 min
    Overall bit rate : 1 156 kb/s
    Writing application : Lavf57.83.100

    Video
    ID : 1
    Format : AVC
    Format/Info : Advanced Video Codec
    Format profile : High@L3.1
    Format settings, CABAC : Yes
    Format settings, ReFrames : 5 frames
    Codec ID : avc1
    Codec ID/Info : Advanced Video Coding
    Duration : 1 h 17 min
    Bit rate : 1 024 kb/s
    Width : 968 pixels
    Height : 544 pixels
    Display aspect ratio : 16:9
    Frame rate mode : Constant
    Frame rate : 29.970 (29970/1000) FPS
    Color space : YUV
    Chroma subsampling : 4:2:0
    Bit depth : 8 bits
    Scan type : Progressive
    Bits/(Pixel*Frame) : 0.065
    Stream size : 567 MiB (89%)
    Writing library : x264 core 148 r2643 5c65704

    Audio
    ID : 2
    Format : AAC
    Format/Info : Advanced Audio Codec
    Format profile : LC
    Codec ID : 40
    Duration : 1 h 17 min
    Bit rate mode : Constant
    Bit rate : 125 kb/s
    Channel(s) : 2 channels
    Channel positions : Front: L R
    Sampling rate : 44.1 kHz
    Frame rate : 43.066 FPS (1024 spf)
    Compression mode : Lossy
    Stream size : 69.2 MiB (11%)
    Default : Yes
    Alternate group : 1
    [You must be registered and logged in to see this image.]
    A GNÓMEÓ ÉS JÚLIA kedvelt kerti törpéi visszatérnek egy vadonatúj londoni kalandra. Gnómeó és Júlia megérkeznek a nagyvárosba családjukkal és barátaikkal, és legfőbb gondjuk, hogy előkészítsék kertjüket a tavaszra. Ám hamarosan rájönnek, hogy valaki kerti törpéket rabol el Londonszerte.
    Amikor Gnómeó és Júlia hazatérnek és kiderül, hogy a kertjükből mindenki eltűnt, csak egy törpe van, akihez fordulhatnak... SHERLOCK GNOMES. A híres detektív, London kerti törpéinek felesküdött védelmezője megérkezik segédjével, Watsonnal, hogy végére járjon az ügynek. A rejtély fergeteges kalandba rántja bele törpéinket, melynek során új dísztárgyakkal ismerkednek meg, és felfedezik a város ismeretlen oldalát...
    [You must be registered and logged in to see this image.]

    [You must be registered and logged in to see this image.]

    [You must be registered and logged in to see this image.]

    [You must be registered and logged in to see this image.]

    [You must be registered and logged in to see this image.]


    Kód:
    https://data.hu/get/11136527/Sherlock_Gnomes_2018.HDCAM.HUN.z01?pid=3213894265
    https://data.hu/get/11136528/Sherlock_Gnomes_2018.HDCAM.HUN.z02?pid=3213894265
    https://data.hu/get/11136529/Sherlock_Gnomes_2018.HDCAM.HUN.z03?pid=3213894265
    https://data.hu/get/11136530/Sherlock_Gnomes_2018.HDCAM.HUN.z04?pid=3213894265
    https://data.hu/get/11136531/Sherlock_Gnomes_2018.HDCAM.HUN.z05?pid=3213894265
    https://data.hu/get/11136532/Sherlock_Gnomes_2018.HDCAM.HUN.z06?pid=3213894265
    https://data.hu/get/11136533/Sherlock_Gnomes_2018.HDCAM.HUN.zip?pid=3213894265

      Pontos idő: Hétf. Nov. 19, 2018 7:45 am