zene mindenkinek

üdvözöllek MusicMan oldalán!!

Az oldal teljes tartalmának megtekintéséhez regisztrációra van szükség.

Az oldalon minden teljesen ingyenes
zene mindenkinek

zene mindenkinek


    A helyőrség A Szpecnaz ébredése 2013.BDRip.HUN

    Share
    avatar
    Admin
    Admin
    Admin

    Hozzászólások száma : 394
    Join date : 2013. Aug. 18.

    A helyőrség A Szpecnaz ébredése 2013.BDRip.HUN

    Témanyitás by Admin on Kedd Márc. 27, 2018 10:59 am

    [You must be registered and logged in to see this image.]

    [You must be registered and logged in to see this image.]
    A helyőrség - A Szpecnaz ébredése /Outpost: Rise of the Spetsnaz/
    angol akció-horror, 2013
    [You must be registered and logged in to see this image.]
    rendező:
    Kieran Parker
    forgatókönyvíró:
    Rae Brunton
    zeneszerző:
    Al Hardiman Patrick Jonsson
    operatőr:
    Carlos de Carvalho
    vágó:
    Naysun Alae-Carew
    [You must be registered and logged in to see this image.]

    Dolokhov
    Bryan Larkin
    Fyodor
    Kamarás Iván
    Strasser
    Michael McKell
    Arkadi
    Velibor Topić
    Osakin
    Laurence Possa
    [You must be registered and logged in to see this image.]
    Format : MPEG-4
    Format profile : Base Media
    Codec ID : isom (isom/iso2/avc1/mp41)
    File size : 398 MiB
    Duration : 1 h 27 min
    Overall bit rate : 639 kb/s
    Writing application : Lavf57.20.100

    Video
    ID : 1
    Format : AVC
    Format/Info : Advanced Video Codec
    Format profile : High@L3
    Format settings, CABAC : Yes
    Format settings, ReFrames : 3 frames
    Codec ID : avc1
    Codec ID/Info : Advanced Video Coding
    Duration : 1 h 27 min
    Bit rate : 512 kb/s
    Width : 720 pixels
    Height : 300 pixels
    Display aspect ratio : 2.40:1
    Frame rate mode : Constant
    Frame rate : 23.976 (24000/1001) FPS
    Color space : YUV
    Chroma subsampling : 4:2:0
    Bit depth : 8 bits
    Scan type : Progressive
    Bits/(Pixel*Frame) : 0.099
    Stream size : 317 MiB (80%)
    Writing library : x264 core 142 r2491 24e4fed
    Language : Hungarian

    Audio
    ID : 2
    Format : AAC
    Format/Info : Advanced Audio Codec
    Format profile : LC
    Codec ID : 40
    Duration : 1 h 27 min
    Bit rate mode : Constant
    Bit rate : 124 kb/s
    Channel(s) : 2 channels
    Channel positions : Front: L R
    Sampling rate : 48.0 kHz
    Frame rate : 46.875 FPS (1024 spf)
    Compression mode : Lossy
    Stream size : 77.4 MiB (19%)
    Language : Hungarian
    Default : Yes
    Alternate group : 1

    [You must be registered and logged in to see this image.]
    Dolokhov (Brian Larkin - Csatatér) őrmester és nehézkötésű katonái hónapok óta küzdenek náci csapatok ellen a keleti fronton. Gerillataktikákkal csapnak le az ellátmányt szállító konvojokra, hídakat, táborokat támadnak. Egy rajtaütést követően olyan felfedezést tesznek, ami képes megváltoztatni a háború kimenetelét, azonban mielőtt a biztonságot nyújtó frontvonalat elérnék egy járöröző német csapat fogságába esnek. Fogolyként egy náci kutatóközpontba kerülnek, ahol bepillantást nyernek Strasser tábornok kísérleteibe. Az őrült tudós egy megállíthatatlan zombihadsereg létrehozásán dolgozik.

    [You must be registered and logged in to see this image.]

    Kód:
    https://data.hu/get/11137960/A_helyorseg_A_Szpecnaz_ebredese_2013.BDRip.HUN.z01?pid=3213894265
    https://data.hu/get/11137961/A_helyorseg_A_Szpecnaz_ebredese_2013.BDRip.HUN.z02?pid=3213894265
    https://data.hu/get/11137962/A_helyorseg_A_Szpecnaz_ebredese_2013.BDRip.HUN.z03?pid=3213894265
    https://data.hu/get/11137963/A_helyorseg_A_Szpecnaz_ebredese_2013.BDRip.HUN.z04?pid=3213894265
    https://data.hu/get/11137964/A_helyorseg_A_Szpecnaz_ebredese_2013.BDRip.HUN.zip?pid=3213894265



      Pontos idő: Szer. Szept. 26, 2018 6:58 am