zene mindenkinek

üdvözöllek MusicMan oldalán!!

Az oldal teljes tartalmának megtekintéséhez regisztrációra van szükség.

Az oldalon minden teljesen ingyenes
zene mindenkinek

zene mindenkinek


    Bőrpofa 2017.WEB-DL.Rip.HUN

    Share
    avatar
    Admin
    Admin
    Admin

    Hozzászólások száma : 394
    Join date : 2013. Aug. 18.

    Bőrpofa 2017.WEB-DL.Rip.HUN

    Témanyitás by Admin on Kedd Márc. 27, 2018 11:12 am

    [You must be registered and logged in to see this image.]

    [You must be registered and logged in to see this image.]
    Bőrpofa /Leatherface / Texas Chainsaw 4/
    magyarul beszélő, amerikai horror, 90 perc, 2017
    [You must be registered and logged in to see this image.]
    rendező:
    Julien Maury Alexandre Bustillo
    forgatókönyvíró:
    Seth M. Sherwood
    operatőr:
    Antoine Sanier
    zene:
    John Frizzell
    producer:
    Christa Campbell Lati Grobman Carl Mazzocone Les Weldon
    vágó:
    Sébastien de Sainte Croix Josh Ethier
    [You must be registered and logged in to see this image.]

    Hal Hartman
    Stephen Dorff
    Verna Sawyer
    Lili Taylor
    Tammy
    Nicole Andrews
    Sorrel
    Finn Jones
    Ike
    James Bloor
    Lizzy
    Vanessa Grasse
    [You must be registered and logged in to see this image.]

    Format : MPEG-4
    Format profile : Base Media
    Codec ID : isom (isom/iso2/avc1/mp41)
    File size : 362 MiB
    Duration : 1 h 27 min
    Overall bit rate : 578 kb/s
    Writing application : Lavf57.83.100

    Video
    ID : 1
    Format : AVC
    Format/Info : Advanced Video Codec
    Format profile : High@L3.1
    Format settings, CABAC : Yes
    Format settings, ReFrames : 5 frames
    Codec ID : avc1
    Codec ID/Info : Advanced Video Coding
    Duration : 1 h 27 min
    Bit rate : 512 kb/s
    Width : 720 pixels
    Height : 304 pixels
    Display aspect ratio : 2.35:1
    Frame rate mode : Constant
    Frame rate : 24.000 FPS
    Color space : YUV
    Chroma subsampling : 4:2:0
    Bit depth : 8 bits
    Scan type : Progressive
    Bits/(Pixel*Frame) : 0.097
    Stream size : 319 MiB (88%)
    Writing library : x264 core 148 r2643 5c65704

    Audio
    ID : 2
    Format : AAC
    Format/Info : Advanced Audio Codec
    Format profile : LC
    Codec ID : 40
    Duration : 1 h 27 min
    Duration_LastFrame : -12 ms
    Bit rate mode : Constant
    Bit rate : 64.5 kb/s
    Channel(s) : 2 channels
    Channel positions : Front: L R
    Sampling rate : 44.1 kHz
    Frame rate : 43.066 FPS (1024 spf)
    Compression mode : Lossy
    Stream size : 40.4 MiB (11%)
    Default : Yes
    Alternate group : 1
    [You must be registered and logged in to see this image.]
    1965-ben, Texasban négy zavarodott és erőszakos tinédzser megszökik egy elmegyógyintézetből, és magukkal hurcolnak egy szép, fiatal ápolónőt is. Megindul utánuk a hajtóvadászat, amelyet a lánya halála miatt bosszúszomjas helyi seriff (Stephen Dorff) vezet. Hamarosan előkerül a motoros fűrész is, és olyan borzalmak várnak a fiatalokra, melyek hatására egyikükből vérengző szörnyeteg válik, akit ma mindenki úgy ismer, a Bőrpofa.

    [You must be registered and logged in to see this image.]

    Kód:
    https://data.hu/get/11137974/Borpofa_2017.WEB-DL.Rip.HUN.z01?pid=3213894265
    https://data.hu/get/11137975/Borpofa_2017.WEB-DL.Rip.HUN.z02?pid=3213894265
    https://data.hu/get/11137976/Borpofa_2017.WEB-DL.Rip.HUN.z03?pid=3213894265
    https://data.hu/get/11137977/Borpofa_2017.WEB-DL.Rip.HUN.zip?pid=3213894265



      Pontos idő: Szer. Szept. 26, 2018 7:21 am