zene mindenkinek

üdvözöllek MusicMan oldalán!!

Az oldal teljes tartalmának megtekintéséhez regisztrációra van szükség.

Az oldalon minden teljesen ingyenes
zene mindenkinek

zene mindenkinek


    Norman 2016.BDRip.HUN

    Share
    avatar
    Admin
    Admin
    Admin

    Hozzászólások száma : 394
    Join date : 2013. Aug. 18.

    Norman 2016.BDRip.HUN

    Témanyitás by Admin on Kedd Márc. 27, 2018 11:21 am

    [You must be registered and logged in to see this image.]

    [You must be registered and logged in to see this image.]
    Norman /Norman: The Moderate Rise and Tragic Fall of a New York Fixer/
    izraeli-amerikai dráma, 117 perc, 2016
    [You must be registered and logged in to see this image.]

    rendező:
    Joseph Cedar
    író:
    Joseph Cedar
    forgatókönyvíró:
    Joseph Cedar
    zeneszerző:
    Jun Miyake
    operatőr:
    Yaron Scharf
    zene:
    Jun Miyake
    producer:
    Miranda Bailey David Mandil Oren Moverman Eyal Rimmon
    kamera:
    Yaron Scharf
    vágó:
    Brian A. Kates
    vizuális effektek:
    John J. Budion
    [You must be registered and logged in to see this image.]

    Norman Oppenheimer
    Richard Gere
    Eshel
    Lior Ashkenazi
    Michael Sheen Dan Stevens Steve Buscemi
    Alex
    Charlotte Gainsbourg
    Srul Katz
    Hank Azaria
    [You must be registered and logged in to see this image.]
    Format : MPEG-4
    Format profile : Base Media
    Codec ID : isom (isom/iso2/avc1/mp41)
    File size : 857 MiB
    Duration : 1 h 58 min
    Overall bit rate : 1 013 kb/s
    Writing application : Lavf57.83.100

    Video
    ID : 1
    Format : AVC
    Format/Info : Advanced Video Codec
    Format profile : High@L4.1
    Format settings, CABAC : Yes
    Format settings, ReFrames : 16 frames
    Codec ID : avc1
    Codec ID/Info : Advanced Video Coding
    Duration : 1 h 58 min
    Bit rate : 911 kb/s
    Width : 720 pixels
    Height : 390 pixels
    Display aspect ratio : 1.85:1
    Frame rate mode : Variable
    Frame rate : 23.976 (24000/1001) FPS
    Minimum frame rate : 23.810 FPS
    Maximum frame rate : 24.390 FPS
    Color space : YUV
    Chroma subsampling : 4:2:0
    Bit depth : 8 bits
    Scan type : Progressive
    Bits/(Pixel*Frame) : 0.135
    Stream size : 770 MiB (90%)
    Writing library : x264 core 142 r2431+42 c69a006 tMod [8-bit@all X86_64]
    Language : hun
    Color range : Limited
    Matrix coefficients : BT.709

    Audio
    ID : 2
    Format : AAC
    Format/Info : Advanced Audio Codec
    Format profile : LC
    Codec ID : 40
    Duration : 1 h 58 min
    Duration_LastFrame : -11 ms
    Bit rate mode : Constant
    Bit rate : 96.0 kb/s
    Channel(s) : 2 channels
    Channel positions : Front: L R
    Sampling rate : 48.0 kHz
    Frame rate : 46.875 FPS (1024 spf)
    Compression mode : Lossy
    Stream size : 82.4 MiB (10%)
    Language : Hungarian
    Default : Yes
    Alternate group : 1
    [You must be registered and logged in to see this image.]
    Norman Oppenheimer teljesen jelentéktelen, hétköznapi ember. Magányosan éli életét New Yorkban, a hatalom és a gazdagság árnyékában, miközben opportunista módon mindent megtesz annak érdekében, hogy helyzetbe hozza magát. Egy nap cipővásárlás közben találkozik és megismerkedik Micha Eshel izraeli politikussal. Norman élete három évvel később váratlan fordulatot vesz, amikor a barátjából, Eshelből hazája miniszterelnöke lesz. Norman hamarosan egy geopolitikai dráma középpontjában találja magát.

    [You must be registered and logged in to see this image.]

    Kód:
    https://data.hu/get/11137999/Norman_2016.BDRip.HUN.z01?pid=3213894265
    https://data.hu/get/11138000/Norman_2016.BDRip.HUN.z02?pid=3213894265
    https://data.hu/get/11138001/Norman_2016.BDRip.HUN.z03?pid=3213894265
    https://data.hu/get/11138002/Norman_2016.BDRip.HUN.z04?pid=3213894265
    https://data.hu/get/11138003/Norman_2016.BDRip.HUN.z05?pid=3213894265
    https://data.hu/get/11138004/Norman_2016.BDRip.HUN.z06?pid=3213894265
    https://data.hu/get/11138005/Norman_2016.BDRip.HUN.z07?pid=3213894265
    https://data.hu/get/11138006/Norman_2016.BDRip.HUN.z08?pid=3213894265
    https://data.hu/get/11138007/Norman_2016.BDRip.HUN.z09?pid=3213894265
    https://data.hu/get/11138008/Norman_2016.BDRip.HUN.zip?pid=3213894265


      Pontos idő: Szer. Szept. 26, 2018 2:59 pm