zene mindenkinek

üdvözöllek MusicMan oldalán!!

Az oldal teljes tartalmának megtekintéséhez regisztrációra van szükség.

Az oldalon minden teljesen ingyenes
zene mindenkinek

zene mindenkinek


    Hívatlanok 2 Éjjeli préda 2018.CAM.HUN

    Share
    avatar
    Admin
    Admin
    Admin

    Hozzászólások száma : 394
    Join date : 2013. Aug. 18.

    Hívatlanok 2 Éjjeli préda 2018.CAM.HUN

    Témanyitás by Admin on Szomb. Márc. 31, 2018 2:48 pm

    [You must be registered and logged in to see this image.]


    [You must be registered and logged in to see this image.]
    Hívatlanok 2 - Éjjeli préda
    /The Strangers: Prey at Night/
    magyarul beszélő, amerikai horror, 85 perc, 2018
    [You must be registered and logged in to see this image.]
    rendező:
    Johannes Roberts
    forgatókönyvíró:
    Bryan Bertino Ben Ketai
    operatőr:
    Ryan Samul
    zene:
    Adrian Johnston
    vágó:
    Martin Brinkler
    [You must be registered and logged in to see this image.]
    Cindy
    Christina Hendricks Pikali Gerda
    Kinsey
    Bailee Madison Hermann Lilla
    Mike
    Martin Henderson Baráth Attila
    Luke
    Lewis Pullman Baráth István
    Dollface
    Emma Bellomy Dobó Enikő
    Maszkos
    Damian Maffei Renácz Zoltán
    [You must be registered and logged in to see this image.]
    Format : MPEG-4
    Format profile : Base Media
    Codec ID : isom (isom/iso2/avc1/mp41)
    File size : 588 MiB
    Duration : 1 h 17 min
    Overall bit rate : 1 060 kb/s
    Writing application : Lavf57.83.100

    Video
    ID : 1
    Format : AVC
    Format/Info : Advanced Video Codec
    Format profile : High@L3.1
    Format settings, CABAC : Yes
    Format settings, ReFrames : 5 frames
    Codec ID : avc1
    Codec ID/Info : Advanced Video Coding
    Duration : 1 h 17 min
    Bit rate : 929 kb/s
    Width : 968 pixels
    Height : 544 pixels
    Display aspect ratio : 16:9
    Frame rate mode : Constant
    Frame rate : 25.000 FPS
    Color space : YUV
    Chroma subsampling : 4:2:0
    Bit depth : 8 bits
    Scan type : Progressive
    Bits/(Pixel*Frame) : 0.071
    Stream size : 515 MiB (88%)
    Writing library : x264 core 148 r2643 5c65704

    Audio
    ID : 2
    Format : AAC
    Format/Info : Advanced Audio Codec
    Format profile : LC
    Codec ID : 40
    Duration : 1 h 17 min
    Bit rate mode : Constant
    Bit rate : 126 kb/s
    Channel(s) : 2 channels
    Channel positions : Front: L R
    Sampling rate : 44.1 kHz
    Frame rate : 43.066 FPS (1024 spf)
    Compression mode : Lossy
    Stream size : 69.7 MiB (12%)
    Default : Yes
    Alternate group : 1
    [You must be registered and logged in to see this image.]
    Egy négytagú család pár nap nyugodt kikapcsolódást remélve kibérel egy faházat egy elhagyatott kempingben. Meglepődve látják, hogy rajtuk kívül senki sincs ott. Amikor az éjszaka közepén valaki bekopogtat az ajtajukon, vérfagyasztó események veszik kezdetét. A családnak minden testi- és lelkierejét be kell vetnie, hogy túléljék a rejtélyes szadista idegenek támadásait, akiknek egyetlen céljuk, hogy kiirtsák a megfélemlített famíliát.
    [You must be registered and logged in to see this image.]

    [You must be registered and logged in to see this image.]


    [You must be registered and logged in to see this image.]


    Kód:
    https://data.hu/get/11144277/Hivatlanok_2_Ejjeli_preda__2018.CAM.HUN.z01?pid=3213894265
    https://data.hu/get/11144278/Hivatlanok_2_Ejjeli_preda__2018.CAM.HUN.z02?pid=3213894265
    https://data.hu/get/11144279/Hivatlanok_2_Ejjeli_preda__2018.CAM.HUN.z03?pid=3213894265
    https://data.hu/get/11144280/Hivatlanok_2_Ejjeli_preda__2018.CAM.HUN.z04?pid=3213894265
    https://data.hu/get/11144281/Hivatlanok_2_Ejjeli_preda__2018.CAM.HUN.z05?pid=3213894265
    https://data.hu/get/11144282/Hivatlanok_2_Ejjeli_preda__2018.CAM.HUN.z06?pid=3213894265
    https://data.hu/get/11144283/Hivatlanok_2_Ejjeli_preda__2018.CAM.HUN.zip?pid=3213894265



      Pontos idő: Pént. Okt. 19, 2018 7:12 am