zene mindenkinek

üdvözöllek MusicMan oldalán!!

Az oldal teljes tartalmának megtekintéséhez regisztrációra van szükség.

Az oldalon minden teljesen ingyenes
zene mindenkinek

zene mindenkinek


    Fák jú, Tanár úr! 3 2018.CAM.HUN

    Share
    avatar
    Admin
    Admin
    Admin

    Hozzászólások száma : 411
    Join date : 2013. Aug. 18.

    Fák jú, Tanár úr! 3 2018.CAM.HUN

    Témanyitás by Admin on Hétf. Aug. 27, 2018 8:22 am


    [You must be registered and logged in to see this image.]


    [You must be registered and logged in to see this image.]
    Fák jú, Tanár úr! 3.
    Eredeti cím:
    Suck Me Shakespeer 3
    Év:
    2018
    Játékidő:
    120 perc
    Kategória:
    Vígjáték
    [You must be registered and logged in to see this image.]
    Író:
    Bora Dagtekin
    Rendező:
    Bora Dagtekin
    [You must be registered and logged in to see this image.]
    Uschi Glas (Ingrid Leimbach-Knorr), Michael Maertens (Eckhart Badebrecht), Katja Riemann (Gudrun Gerster), Bernd Stegemann (Herr Gundlach), Elyas M'Barek (Zeki Müller), Sandra Hüller (Biggi Enzberger), Max von der Groeben (Danger), Tristan Göbel (Schütte), Aram Arami (Burak), Jella Haase (Chantal), Lucas Reiber (Etienne (Ploppi)), Rafael Koussouris (Hasko), Runa Greiner (Meike), Farid Bang (Paco), Gizem Emre (Zeynep)
    [You must be registered and logged in to see this image.]
    Format : MPEG-4
    Format profile : Base Media
    Codec ID : isom (isom/iso2/avc1/mp41)
    File size : 1.17 GiB
    Duration : 1 h 59 min
    Overall bit rate : 1 401 kb/s
    Writing application : Lavf57.83.100

    Video
    ID : 1
    Format : AVC
    Format/Info : Advanced Video Codec
    Format profile : High@L3.1
    Format settings, CABAC : Yes
    Format settings, ReFrames : 5 frames
    Codec ID : avc1
    Codec ID/Info : Advanced Video Coding
    Duration : 1 h 59 min
    Bit rate : 1 280 kb/s
    Width : 1 280 pixels
    Height : 720 pixels
    Display aspect ratio : 2.40:1
    Frame rate mode : Constant
    Frame rate : 24.000 FPS
    Color space : YUV
    Chroma subsampling : 4:2:0
    Bit depth : 8 bits
    Scan type : Progressive
    Bits/(Pixel*Frame) : 0.058
    Stream size : 1.06 GiB (91%)
    Writing library : x264 core 148 r2795 aaa9aa8
    Encoding settings : cabac=1 / ref=5 / deblock=1:0:0 / analyse=0x3:0x113 / me=hex / subme=7 / psy=1 / psy_rd=1.00:0.00 / mixed_ref=1 / me_range=16 / chroma_me=1 / trellis=1 / 8x8dct=1 / cqm=0 / deadzone=21,11 / fast_pskip=1 / chroma_qp_offset=-2 / threads=8 / lookahead_threads=8 / sliced_threads=1 / slices=8 / nr=0 / decimate=1 / interlaced=0 / bluray_compat=0 / constrained_intra=0 / bframes=0 / weightp=2 / keyint=250 / keyint_min=24 / scenecut=40 / intra_refresh=0 / rc=abr / mbtree=0 / bitrate=1280 / ratetol=1.0 / qcomp=0.60 / qpmin=0 / qpmax=69 / qpstep=4 / ip_ratio=1.40 / aq=1:1.00

    Audio
    ID : 2
    Format : AAC
    Format/Info : Advanced Audio Codec
    Format profile : LC
    Codec ID : 40
    Duration : 1 h 58 min
    Duration_LastFrame : -1 ms
    Bit rate mode : Constant
    Bit rate : 130 kb/s
    Channel(s) : 2 channels
    Channel positions : Front: L R
    Sampling rate : 44.1 kHz
    Frame rate : 43.066 FPS (1024 spf)
    Compression mode : Lossy
    Stream size : 110 MiB (9%)
    Default : Yes
    Alternate group : 1
    [You must be registered and logged in to see this image.]

    Új tanév - új problémák. Zeki Miller pedig megint egy stresszes év elé néz a Göthe középiskolában. A pályaválasztási tanácsadó finoman szólva sem kecsegteti fényes jövővel a káosz osztály egyetlen tagját sem, ezért Chantal, Danger, Burak és Zeynep teljesen letörnek. Mivel csalódottságukban még több bajt kevernek, Zekiből előtör az igazi tanár, és elhatározza, hogy gatyába rázza a srácokat, és átrugdossa őket az érettségin. Vajon Miller tanár úr most milyen újfajta módszereket vet be diákjai megzabolására?
    [You must be registered and logged in to see this image.]

    [You must be registered and logged in to see this image.]


    [You must be registered and logged in to see this image.]


    [You must be registered and logged in to see this image.]



    [You must be registered and logged in to see this image.]


    Kód:
    https://data.hu/get/11386305/Fak_ju_Tanar_ur_3_2018.CAM.HUN.z01?pid=3213894265
    https://data.hu/get/11386306/Fak_ju_Tanar_ur_3_2018.CAM.HUN.z02?pid=3213894265
    https://data.hu/get/11386307/Fak_ju_Tanar_ur_3_2018.CAM.HUN.z03?pid=3213894265
    https://data.hu/get/11386308/Fak_ju_Tanar_ur_3_2018.CAM.HUN.z04?pid=3213894265
    https://data.hu/get/11386309/Fak_ju_Tanar_ur_3_2018.CAM.HUN.z05?pid=3213894265
    https://data.hu/get/11386310/Fak_ju_Tanar_ur_3_2018.CAM.HUN.z06?pid=3213894265
    https://data.hu/get/11386311/Fak_ju_Tanar_ur_3_2018.CAM.HUN.z07?pid=3213894265
    https://data.hu/get/11386312/Fak_ju_Tanar_ur_3_2018.CAM.HUN.z08?pid=3213894265
    https://data.hu/get/11386313/Fak_ju_Tanar_ur_3_2018.CAM.HUN.z09?pid=3213894265
    https://data.hu/get/11386314/Fak_ju_Tanar_ur_3_2018.CAM.HUN.z10?pid=3213894265
    https://data.hu/get/11386315/Fak_ju_Tanar_ur_3_2018.CAM.HUN.z11?pid=3213894265
    https://data.hu/get/11386316/Fak_ju_Tanar_ur_3_2018.CAM.HUN.z12?pid=3213894265
    https://data.hu/get/11386317/Fak_ju_Tanar_ur_3_2018.CAM.HUN.zip?pid=3213894265

      Pontos idő: Vas. Dec. 16, 2018 10:05 pm