zene mindenkinek

üdvözöllek MusicMan oldalán!!

Az oldal teljes tartalmának megtekintéséhez regisztrációra van szükség.

Az oldalon minden teljesen ingyenes
zene mindenkinek

zene mindenkinek


    Predator - A ragadozó 2018.CAM.HUN

    Share
    avatar
    Admin
    Admin
    Admin

    Hozzászólások száma : 394
    Join date : 2013. Aug. 18.

    Predator - A ragadozó 2018.CAM.HUN

    Témanyitás by Admin on Vas. Szept. 16, 2018 7:36 am

    [You must be registered and logged in to see this image.]


    [You must be registered and logged in to see this image.]
    Predator - A ragadozó
    /The Predator/
    amerikai akciófilm, kalandfilm, horror, 107 perc, 2018
    [You must be registered and logged in to see this image.]


    rendező:
    Shane Black
    forgatókönyvíró:
    Shane Black Fred Dekker
    operatőr:
    Larry Fong
    vágó:
    Harry B. Miller III
    zene:
    Henry Jackman
    producer:
    John Davis Lawrence Gordon Joel Silver
    társproducer:
    Blondel Aidoo
    executive producer:
    Bill Bannerman
    [You must be registered and logged in to see this image.]
    Casey Bracket
    Olivia Munn
    Quinn McKenna
    Boyd Holbrook
    Williams
    Trevante Rhodes
    Coyle
    Keegan Michael Key
    Lynch
    Alfie Allen
    Rory McKenna
    Jacob Tremblay
    Emily
    Yvonne Strahovski
    Kormányügynök
    Sterling K. Brown
    Lochlyn Munro
    Baxley
    Thomas Jane
    [You must be registered and logged in to see this image.]
    Format : MPEG-4
    Format profile : Base Media
    Codec ID : isom (isom/iso2/avc1/mp41)
    File size : 407 MiB
    Duration : 1 h 36 min
    Overall bit rate : 586 kb/s
    Writing application : Lavf57.83.100

    Video
    ID : 1
    Format : AVC
    Format/Info : Advanced Video Codec
    Format profile : High@L3.1
    Format settings, CABAC : Yes
    Format settings, ReFrames : 5 frames
    Codec ID : avc1
    Codec ID/Info : Advanced Video Coding
    Duration : 1 h 36 min
    Bit rate : 512 kb/s
    Width : 720 pixels
    Height : 300 pixels
    Display aspect ratio : 2.40:1
    Frame rate mode : Constant
    Frame rate : 29.970 (30000/1001) FPS
    Color space : YUV
    Chroma subsampling : 4:2:0
    Bit depth : 8 bits
    Scan type : Progressive
    Bits/(Pixel*Frame) : 0.079
    Stream size : 357 MiB (88%)
    Writing library : x264 core 148 r2795 aaa9aa8

    Audio
    ID : 2
    Format : AAC
    Format/Info : Advanced Audio Codec
    Format profile : LC
    Codec ID : 40
    Duration : 1 h 36 min
    Duration_LastFrame : -3 ms
    Bit rate mode : Constant
    Bit rate : 64.4 kb/s
    Channel(s) : 2 channels
    Channel positions : Front: L R
    Sampling rate : 48.0 kHz
    Frame rate : 46.875 FPS (1024 spf)
    Compression mode : Lossy
    Stream size : 44.7 MiB (11%)
    Title : 0
    Default : Yes
    Alternate group : 1
    [You must be registered and logged in to see this image.]
    Shane Black friss vért fecskendez a Predator-sorozatba ezzel a kirobbanó új résszel, amelyben a vadászat a világűr távoli zugaitól a külvárosi utcákig terjed. Az univerzum legveszedelmesebb ragadozói más fajok DNS-ét használva genetikailag módosították magukat, így most erősebbek, okosabbak és halálosabbak, mint bármikor. Mikor egy kisfiú tudtán kívül a Földre vonzza őket, csupán egy exkatonákból álló szedett-vedett csapat és egy morózus technikatanárnő állhat az emberiség pusztulásának útjába.

    [You must be registered and logged in to see this image.]

    [You must be registered and logged in to see this image.]

    [You must be registered and logged in to see this image.]

    [You must be registered and logged in to see this image.]

    [You must be registered and logged in to see this image.]


    Kód:
    https://data.hu/get/11422607/Predator_-_A_ragadozo_2018.CAM.HUN.z01?pid=3213894265
    https://data.hu/get/11422608/Predator_-_A_ragadozo_2018.CAM.HUN.z02?pid=3213894265
    https://data.hu/get/11422609/Predator_-_A_ragadozo_2018.CAM.HUN.z03?pid=3213894265
    https://data.hu/get/11422610/Predator_-_A_ragadozo_2018.CAM.HUN.z04?pid=3213894265
    https://data.hu/get/11422611/Predator_-_A_ragadozo_2018.CAM.HUN.zip?pid=3213894265

      Pontos idő: Szer. Szept. 26, 2018 7:26 am