zene mindenkinek

üdvözöllek MusicMan oldalán!!

Az oldal teljes tartalmának megtekintéséhez regisztrációra van szükség.

Az oldalon minden teljesen ingyenes
zene mindenkinek

zene mindenkinek


    Ősember - Kicsi az ős, de hős! 2018.CAM.HUN

    Share
    avatar
    Admin
    Admin
    Admin

    Hozzászólások száma : 398
    Join date : 2013. Aug. 18.

    Ősember - Kicsi az ős, de hős! 2018.CAM.HUN

    Témanyitás by Admin on Kedd Márc. 06, 2018 9:39 pm

    [You must be registered and logged in to see this image.]

    [You must be registered and logged in to see this image.]
    Ősember - Kicsi az ős, de hős!
    Eredeti cím:
    Early Man
    Év:
    2018
    Játékidő:
    89 perc

    Kategória:
    Animáció, Kaland, Vígjáték
    [You must be registered and logged in to see this image.]

    Író:
    Mark Burton, James Higginson
    Rendező:
    Nick Park
    [You must be registered and logged in to see this image.]

    Timothy Spall (Chief Bobnar (voice)), Rob Brydon (Message Bird / Brian / Bryan (voice)), Simon Greenall (Eemak / Thongo / Additional Voices (voice)), Selina Griffiths (Magma (voice)), Miriam Margolyes (Queen Oofeefa (voice)), Nick Park (Hognob (voice)), Johnny Vegas (Asbo (voice)), Mark Williams (Barry (voice)), Gina Yashere (Gravelle (voice)), Tom Hiddleston (Lord Nooth (voice)), Kayvan Novak (Dino (voice)), Eddie Redmayne (Dug (voice)), Richard Ayoade (Treebor (voice)), Maisie Williams (Goona (voice)), Luke Walton (Huggelgrabber (voice))
    [You must be registered and logged in to see this image.]
    Format : MPEG-4
    Format profile : Base Media
    Codec ID : isom (isom/iso2/avc1/mp41)
    File size : 491 MiB
    Duration : 1 h 18 min
    Overall bit rate : 876 kb/s
    Writing application : Lavf57.83.100

    Video
    ID : 1
    Format : AVC
    Format/Info : Advanced Video Codec
    Format profile : High@L3.1
    Format settings, CABAC : Yes
    Format settings, ReFrames : 5 frames
    Codec ID : avc1
    Codec ID/Info : Advanced Video Coding
    Duration : 1 h 18 min
    Bit rate : 768 kb/s
    Width : 768 pixels
    Height : 512 pixels
    Display aspect ratio : 16:10
    Frame rate mode : Constant
    Frame rate : 29.970 (29970/1000) FPS
    Color space : YUV
    Chroma subsampling : 4:2:0
    Bit depth : 8 bits
    Scan type : Progressive
    Bits/(Pixel*Frame) : 0.065
    Stream size : 433 MiB (88%)
    Writing library : x264 core 148 r2643 5c65704
    Encoding settings : cabac=1 / ref=5 / deblock=1:0:0 / analyse=0x3:0x113 / me=hex / subme=7 / psy=1 / psy_rd=1.00:0.00 / mixed_ref=1 / me_range=16 / chroma_me=1 / trellis=1 / 8x8dct=1 / cqm=0 / deadzone=21,11 / fast_pskip=1 / chroma_qp_offset=-2 / threads=8 / lookahead_threads=8 / sliced_threads=1 / slices=8 / nr=0 / decimate=1 / interlaced=0 / bluray_compat=0 / constrained_intra=0 / bframes=0 / weightp=2 / keyint=250 / keyint_min=25 / scenecut=40 / intra_refresh=0 / rc=abr / mbtree=0 / bitrate=768 / ratetol=1.0 / qcomp=0.60 / qpmin=0 / qpmax=69 / qpstep=4 / ip_ratio=1.40 / aq=1:1.00

    Audio
    ID : 2
    Format : AAC
    Format/Info : Advanced Audio Codec
    Format profile : LC
    Codec ID : 40
    Duration : 1 h 18 min
    Bit rate mode : Constant
    Bit rate : 96.0 kb/s
    Channel(s) : 2 channels
    Channel positions : Front: L R
    Sampling rate : 44.1 kHz
    Frame rate : 43.066 FPS (1024 spf)
    Compression mode : Lossy
    Stream size : 53.9 MiB (11%)
    Default : Yes
    Alternate group : 1
    [You must be registered and logged in to see this image.]
    A kicsit sem bátor kőkori ősöknél majdnem minden kerek, amíg völgyüket el nem foglalja a pénzéhes bronzkori zsarnok, Kupor. Az Öreg és törzse beletörődnek a sanyarú száműzetésbe, ám az ifjú és ügyetlen Öcsi hű társával, Kutylaccal mer nagyot álmodni és megpróbálják felvenni a kesztyűt. Ha beválik a nem túl kigondolt tervük, visszakapják szeretett otthonukat. De ha elbuknak, akkor örökre a bányákban fognak dolgozni...
    [You must be registered and logged in to see this image.]

    [You must be registered and logged in to see this image.]

    [You must be registered and logged in to see this image.]

    [You must be registered and logged in to see this image.]

    [You must be registered and logged in to see this image.]

    [You must be registered and logged in to see this image.]


    Kód:
    https://data.hu/get/11092940/Osember_-_Kicsi_az_os_de_hos_2018.CAM.HUN.z01?pid=3213894265
    https://data.hu/get/11092941/Osember_-_Kicsi_az_os_de_hos_2018.CAM.HUN.z02?pid=3213894265
    https://data.hu/get/11092942/Osember_-_Kicsi_az_os_de_hos_2018.CAM.HUN.z03?pid=3213894265
    https://data.hu/get/11092943/Osember_-_Kicsi_az_os_de_hos_2018.CAM.HUN.z04?pid=3213894265
    https://data.hu/get/11092944/Osember_-_Kicsi_az_os_de_hos_2018.CAM.HUN.z05?pid=3213894265
    https://data.hu/get/11092945/Osember_-_Kicsi_az_os_de_hos_2018.CAM.HUN.zip?pid=3213894265




      Pontos idő: Szer. Okt. 24, 2018 3:27 am