zene mindenkinek

üdvözöllek MusicMan oldalán!!

Az oldal teljes tartalmának megtekintéséhez regisztrációra van szükség.

Az oldalon minden teljesen ingyenes
zene mindenkinek

zene mindenkinek


    Winchester Villa Szellemek háza 2018.HDTS.HUN

    Share
    avatar
    Admin
    Admin
    Admin

    Hozzászólások száma : 411
    Join date : 2013. Aug. 18.

    Winchester Villa Szellemek háza 2018.HDTS.HUN

    Témanyitás by Admin on Szomb. Márc. 17, 2018 8:41 am

    [You must be registered and logged in to see this image.]

    [You must be registered and logged in to see this image.]
    Szellemek háza
    /Winchester/
    magyarul beszélő, ausztrál-amerikai horror, 99 perc, 2018
    [You must be registered and logged in to see this image.]


    rendező:
    Peter Spierig Michael Spierig
    forgatókönyvíró:
    Michael Spierig Peter Spierig Tom Vaughan
    operatőr:
    Ben Nott
    zene:
    Peter Spierig
    producer:
    Benedict Carver Tobin Armbrust
    vágó:
    Matt Villa
    [You must be registered and logged in to see this image.]

    Sarah Winchester
    Helen Mirren
    Marion Marriott
    Sarah Snook
    Dr. Eric Price
    Jason Clarke
    John Hansen
    Angus Sampson
    Ben Block
    Eamon Farren
    Arthur Gates
    Tyler Coppin
    [You must be registered and logged in to see this image.]

    Format : MPEG-4
    Format profile : Base Media
    Codec ID : isom (isom/iso2/avc1/mp41)
    File size : 744 MiB
    Duration : 1 h 38 min
    Overall bit rate : 1 054 kb/s
    Writing application : Lavf57.83.100

    Video
    ID : 1
    Format : AVC
    Format/Info : Advanced Video Codec
    Format profile : High@L3.1
    Format settings, CABAC : Yes
    Format settings, ReFrames : 5 frames
    Codec ID : avc1
    Codec ID/Info : Advanced Video Coding
    Duration : 1 h 38 min
    Bit rate : 922 kb/s
    Width : 968 pixels
    Height : 544 pixels
    Display aspect ratio : 16:9
    Frame rate mode : Constant
    Frame rate : 29.970 (29970/1000) FPS
    Color space : YUV
    Chroma subsampling : 4:2:0
    Bit depth : 8 bits
    Scan type : Progressive
    Bits/(Pixel*Frame) : 0.058
    Stream size : 651 MiB (87%)
    Writing library : x264 core 148 r2643 5c65704


    Audio
    ID : 2
    Format : AAC
    Format/Info : Advanced Audio Codec
    Format profile : LC
    Codec ID : 40
    Duration : 1 h 38 min
    Bit rate mode : Constant
    Bit rate : 125 kb/s
    Channel(s) : 2 channels
    Channel positions : Front: L R
    Sampling rate : 44.1 kHz
    Frame rate : 43.066 FPS (1024 spf)
    Compression mode : Lossy
    Stream size : 88.3 MiB (12%)
    Default : Yes
    Alternate group : 1
    [You must be registered and logged in to see this image.]
    A megtörtént eseményeken alapuló történet a történelem legelátkozottabb házáról szól, amely San Francisco közelében, egy elhagyatott környéken áll. A házat Sarah Winchester, a Winchester vagyon örököse, a híres ismétlőfegyver feltalálójának özvegye építteti évtizedeken keresztül, mániákusan. Hét szinten szobák százait rejtik a zegzugos és furfangos folyosók, de a ház nem neki, az unokahúgának, vagy bármely más élő embereknek épül. Az özvegy bosszúszomjas szellemek százainak építteti a semmihez nem hasonlítható épületet, mert úgy hiszi, hogy a Winchesterrel meggyilkolt emberek szellemei akarnak leszámolni vele saját, erőszakos haláluk miatt.
    [You must be registered and logged in to see this image.]

    [You must be registered and logged in to see this image.]

    [You must be registered and logged in to see this image.]

    [You must be registered and logged in to see this image.]

    [You must be registered and logged in to see this image.]

    Kód:
    https://data.hu/get/11116880/Winchester_Villa_Szellemek_haza_2018.HDTS.HUN.z01?pid=3213894265
    https://data.hu/get/11116881/Winchester_Villa_Szellemek_haza_2018.HDTS.HUN.z02?pid=3213894265
    https://data.hu/get/11116882/Winchester_Villa_Szellemek_haza_2018.HDTS.HUN.z03?pid=3213894265
    https://data.hu/get/11116883/Winchester_Villa_Szellemek_haza_2018.HDTS.HUN.z04?pid=3213894265
    https://data.hu/get/11116884/Winchester_Villa_Szellemek_haza_2018.HDTS.HUN.z05?pid=3213894265
    https://data.hu/get/11116885/Winchester_Villa_Szellemek_haza_2018.HDTS.HUN.z06?pid=3213894265
    https://data.hu/get/11116886/Winchester_Villa_Szellemek_haza_2018.HDTS.HUN.z07?pid=3213894265
    https://data.hu/get/11116887/Winchester_Villa_Szellemek_haza_2018.HDTS.HUN.zip?pid=3213894265


      Pontos idő: Szer. Dec. 12, 2018 11:04 am