zene mindenkinek

üdvözöllek MusicMan oldalán!!

Az oldal teljes tartalmának megtekintéséhez regisztrációra van szükség.

Az oldalon minden teljesen ingyenes
zene mindenkinek

zene mindenkinek


    Gyilkolj vagy meghalsz 2017.BDRip.HUN

    Share
    avatar
    Admin
    Admin
    Admin

    Hozzászólások száma : 411
    Join date : 2013. Aug. 18.

    Gyilkolj vagy meghalsz 2017.BDRip.HUN

    Témanyitás by Admin on Hétf. Márc. 19, 2018 3:55 pm

    [You must be registered and logged in to see this image.]

    [You must be registered and logged in to see this image.]
    Gyilkolj vagy meghalsz
    (Keep Watching)
    Nemzet: amerikai
    Stílus: horror
    Hossz: 89 perc
    [You must be registered and logged in to see this image.]

    Író:
    Joseph Dembner
    Rendező:
    Sean Carter
    [You must be registered and logged in to see this image.]
    Christopher James Baker (Creator (as Christopher Baker)), Ioan Gruffudd (Carl Mitchell), Leigh Whannell (Mysterious Guest), Matthew Willig (Terror), Bella Thorne (Jamie), Carlos Arellano (Sheriff), Natalie Martinez (Nicole), April McCullough (Betty Mitchell), Chandler Riggs (John Mitchell), Jared Abrahamson (Josh), Savannah Douglas (Young Jamie)
    [You must be registered and logged in to see this image.]
    Format : MPEG-4
    Format profile : Base Media
    Codec ID : isom (isom/iso2/avc1/mp41)
    File size : 614 MiB
    Duration : 1 h 29 min
    Overall bit rate : 961 kb/s
    Writing application : Lavf57.83.100

    Video
    ID : 1
    Format : AVC
    Format/Info : Advanced Video Codec
    Format profile : High@L4.1
    Format settings, CABAC : Yes
    Format settings, ReFrames : 16 frames
    Codec ID : avc1
    Codec ID/Info : Advanced Video Coding
    Duration : 1 h 29 min
    Bit rate : 858 kb/s
    Width : 720 pixels
    Height : 404 pixels
    Display aspect ratio : 16:9
    Frame rate mode : Variable
    Frame rate : 23.976 (24000/1001) FPS
    Minimum frame rate : 23.810 FPS
    Maximum frame rate : 24.390 FPS
    Color space : YUV
    Chroma subsampling : 4:2:0
    Bit depth : 8 bits
    Scan type : Progressive
    Bits/(Pixel*Frame) : 0.123
    Stream size : 548 MiB (89%)
    Writing library : x264 core 155 r2901 7d0ff22

    Language : hun

    Audio
    ID : 2
    Format : AAC
    Format/Info : Advanced Audio Codec
    Format profile : LC
    Codec ID : 40
    Duration : 1 h 29 min
    Duration_LastFrame : -11 ms
    Bit rate mode : Constant
    Bit rate : 96.0 kb/s
    Channel(s) : 2 channels
    Channel positions : Front: L R
    Sampling rate : 48.0 kHz
    Frame rate : 46.875 FPS (1024 spf)
    Compression mode : Lossy
    Stream size : 62.1 MiB (10%)
    Language : Hungarian
    Default : Yes
    Alternate group : 1
    [You must be registered and logged in to see this image.]
    Egy családot a saját házukban ejtenek túszul. A betolakodók vérfagyasztó játékra kényszerítik a rettegő háziakat, akik kezdetben egyáltalán nem értik, mi vezérli a támadókat, ahogy azonban az éj sötétje mindjobban rájuk borul, úgy lesznek egyre világosabbak a szabályok. A család arra is rájön, hogy legmerészebb rémálmaik megelevenedését emberek figyelik a világ minden tájáról élőben. A hátborzongató események nézői nem tudják eldönteni, hogy megrendezett horrort látnak, vagy aminek kényszerű szemtanúi, az maga az iszonyatos valóság.

    [You must be registered and logged in to see this image.]


    Kód:
    https://data.hu/get/11122784/Gyilkolj_vagy_meghalsz_2017.BDRip.HUN.z01?pid=3213894265
    https://data.hu/get/11122785/Gyilkolj_vagy_meghalsz_2017.BDRip.HUN.z02?pid=3213894265
    https://data.hu/get/11122786/Gyilkolj_vagy_meghalsz_2017.BDRip.HUN.z03?pid=3213894265
    https://data.hu/get/11122787/Gyilkolj_vagy_meghalsz_2017.BDRip.HUN.z04?pid=3213894265
    https://data.hu/get/11122788/Gyilkolj_vagy_meghalsz_2017.BDRip.HUN.z05?pid=3213894265
    https://data.hu/get/11122789/Gyilkolj_vagy_meghalsz_2017.BDRip.HUN.z06?pid=3213894265
    https://data.hu/get/11122790/Gyilkolj_vagy_meghalsz_2017.BDRip.HUN.zip?pid=3213894265


      Pontos idő: Szer. Dec. 12, 2018 9:47 am