zene mindenkinek

üdvözöllek MusicMan oldalán!!

Az oldal teljes tartalmának megtekintéséhez regisztrációra van szükség.

Az oldalon minden teljesen ingyenes
zene mindenkinek

zene mindenkinek


    Vörös veréb 2018 .HDCAM.HUN

    Share
    avatar
    Admin
    Admin
    Admin

    Hozzászólások száma : 394
    Join date : 2013. Aug. 18.

    Vörös veréb 2018 .HDCAM.HUN

    Témanyitás by Admin on Pént. Márc. 09, 2018 6:28 am

    [You must be registered and logged in to see this image.]

    [You must be registered and logged in to see this image.]
    Vörös veréb
    Eredeti cím:
    Red Sparrow
    Év:
    2018
    Játékidő:
    139 perc
    Kategória:
    Misztikus, Thriller
    [You must be registered and logged in to see this image.]

    Író:
    Justin Haythe, Jason Matthews
    Rendező:
    Francis Lawrence
    [You must be registered and logged in to see this image.]
    Jeremy Irons (General Korchnoi), Mary-Louise Parker (Stephanie Boucher), Joely Richardson (Nina Egorova), Ciarán Hinds (Zakharov), Charlotte Rampling (Matron), Bill Camp (Marty Gable), Joel Edgerton (Nate Nash), Douglas Hodge (Maxim Volontov), Sakina Jaffrey (Trish Forsyth), Thekla Reuten (Marta), Matthias Schoenaerts (Vanya Egorov), Sebastian Hülk (Matorin), Jennifer Lawrence (Dominika Egorova), Sergei Polunin (Konstantin), Sasha Frolova (Anya)
    [You must be registered and logged in to see this image.]
    Complete name : C:\Users\Rendszergazda\Desktop\feltöltésre\Vörös veréb 2018 .HDCAM.HUN\Vörös veréb 2018 .HDCAM.HUN.mp4
    Format : MPEG-4
    Format profile : Base Media
    Codec ID : isom (isom/iso2/avc1/mp41)
    File size : 965 MiB
    Duration : 2 h 10 min
    Overall bit rate : 1 032 kb/s
    Writing application : Lavf57.83.100

    Video
    ID : 1
    Format : AVC
    Format/Info : Advanced Video Codec
    Format profile : High@L3.1
    Format settings, CABAC : Yes
    Format settings, ReFrames : 5 frames
    Codec ID : avc1
    Codec ID/Info : Advanced Video Coding
    Duration : 2 h 10 min
    Bit rate : 896 kb/s
    Width : 960 pixels
    Height : 540 pixels
    Display aspect ratio : 16:9
    Frame rate mode : Constant
    Frame rate : 29.970 (30000/1001) FPS
    Color space : YUV
    Chroma subsampling : 4:2:0
    Bit depth : 8 bits
    Scan type : Progressive
    Bits/(Pixel*Frame) : 0.058
    Stream size : 839 MiB (87%)
    Writing library : x264 core 148 r2643 5c65704
    Encoding settings : cabac=1 / ref=5 / deblock=1:0:0 / analyse=0x3:0x113 / me=hex / subme=7 / psy=1 / psy_rd=1.00:0.00 / mixed_ref=1 / me_range=16 / chroma_me=1 / trellis=1 / 8x8dct=1 / cqm=0 / deadzone=21,11 / fast_pskip=1 / chroma_qp_offset=-2 / threads=8 / lookahead_threads=8 / sliced_threads=1 / slices=8 / nr=0 / decimate=1 / interlaced=0 / bluray_compat=0 / constrained_intra=0 / bframes=0 / weightp=2 / keyint=250 / keyint_min=25 / scenecut=40 / intra_refresh=0 / rc=abr / mbtree=0 / bitrate=896 / ratetol=1.0 / qcomp=0.60 / qpmin=0 / qpmax=69 / qpstep=4 / ip_ratio=1.40 / aq=1:1.00

    Audio
    ID : 2
    Format : AAC
    Format/Info : Advanced Audio Codec
    Format profile : LC
    Codec ID : 40
    Duration : 2 h 10 min
    Duration_LastFrame : -3 ms
    Bit rate mode : Constant
    Bit rate : 128 kb/s
    Channel(s) : 2 channels
    Channel positions : Front: L R
    Sampling rate : 44.1 kHz
    Frame rate : 43.066 FPS (1024 spf)
    Compression mode : Lossy
    Stream size : 120 MiB (12%)
    Default : Yes
    Alternate group : 1
    [You must be registered and logged in to see this image.]
    Dominika Jegorováról sok minden elmondható. Odaadó gyermek, aki bármi áron megvédi édesanyját. Prímabalerina, aki testileg és lelkileg is a végsőkig feszítette korlátait. Mestere a csábításnak és a manipulálásnak... Amikor a karrierje végét jelentő sérülést szenved, bizonytalan és sötét jövő dereng fel Dominika és anyja előtt. Így lesz a lányból könnyű préda a Veréb Iskola, egy titkos hírszerzési szolgálat számára, akik kivételes fiatalokat tanítanak arra, hogy testüket és elméjüket fegyverként használják. Kiállja a szadista kiképzést, és belőle válik a legveszedelmesebb Veréb, akit a program valaha produkált. Dominikának most össze kell egyeztetnie új énjét azzal, aki egykor volt; nemcsak saját, hanem minden kedves ismerősének élete veszélyben forog, köztük egy amerikai CIA-ügynöké, aki minduntalan győzködi: ő az egyetlen ember, akiben a lány megbízhat.
    [You must be registered and logged in to see this image.]

    [You must be registered and logged in to see this image.]

    [You must be registered and logged in to see this image.]

    [You must be registered and logged in to see this image.]

    [You must be registered and logged in to see this image.]

    [You must be registered and logged in to see this image.]


    Kód:
    https://data.hu/get/11096368/Voros_vereb_2018_.HDCAM.HUN.z01?pid=3213894265
    https://data.hu/get/11096369/Voros_vereb_2018_.HDCAM.HUN.z02?pid=3213894265
    https://data.hu/get/11096370/Voros_vereb_2018_.HDCAM.HUN.z03?pid=3213894265
    https://data.hu/get/11096371/Voros_vereb_2018_.HDCAM.HUN.z04?pid=3213894265
    https://data.hu/get/11096372/Voros_vereb_2018_.HDCAM.HUN.z05?pid=3213894265
    https://data.hu/get/11096373/Voros_vereb_2018_.HDCAM.HUN.z06?pid=3213894265
    https://data.hu/get/11096374/Voros_vereb_2018_.HDCAM.HUN.z07?pid=3213894265
    https://data.hu/get/11096375/Voros_vereb_2018_.HDCAM.HUN.z08?pid=3213894265
    https://data.hu/get/11096376/Voros_vereb_2018_.HDCAM.HUN.z09?pid=3213894265
    https://data.hu/get/11096377/Voros_vereb_2018_.HDCAM.HUN.zip?pid=3213894265




      Pontos idő: Szer. Szept. 26, 2018 6:56 am